Loading...
Error

(Православная песня) Иеромонах Роман "Что, Адам, сидишь ты против рая?" - 2008, FLAC (image + .cue), lossless

Ответить на тему
Статистика раздачи
Качают: [ 2 ]
Скачали: [ 10 ]
   
 
Автор Сообщение

sidno

Стаж: 7 лет 6 месяцев

Сообщений: 5

Russia

post 23-Сен-2009 17:44

[Цитировать] 

Иеромонах Роман "Что, Адам, сидишь ты против рая?"

pic
Страна: Белорусь
Жанр: православная песня
Год выпуска: 2008
Формат: FLAC (image + .cue)
Битрейт аудио: lossless
Трэклист:
01. Иеромонах Роман - Что, Адам, сидишь ты против рая? 05:21
02. Иеромонах Роман - Господи, помилуй 04:13
03. Иеромонах Роман - Станем пред Царицею Небесной 08:38
04. Иеромонах Роман - У меня мечта велия 04:26
05. Иеромонах Роман - Благорастворение воздухов 03:40
06. Иеромонах Роман - В минуту скорбную сию 05:23
07. Иеромонах Роман - Все моя молитва превозможет 03:41
08. Иеромонах Роман - Пост с молитвой сердце отогреет 09:37
09. Иеромонах Роман - Вся Россия стала полем Куликовым 02:42
10. Иеромонах Роман - Гора Голгофа 06:32
11. Иеромонах Роман - Если тебя неудача постигла 03:59
12. Иеромонах Роман - Иерусалим 05:21
13. Иеромонах Роман - Когда пойду на суд душой 04:04
14. Иеромонах Роман - Пел слепой заученное с детства 04:54
Дополнительная информация: Отчёт EAC
скрытый текст
Exact Audio Copy V0.99 prebeta 1 from 25. May 2007

Отчёт EAC об извлечении, выполненном 23. сентября 2009, 19:28

Иеромонах Роман / Что, Адам, сидишь ты против рая?

Дисковод: Optiarc DVD RW AD-7170A Adapter: 3 ID: 0

Режим чтения : Достоверность
Использование точного потока : Да
Отключение кэша аудио : Нет
Использование указателей C2 : Нет

Комбинированное смещение чтения/записи : 0
Способность читать области Lead-in и Lead-out : Нет
Заполнение пропущенных сэмплов тишиной : Да
Удаление блоков с тишиной в начале и конце : Нет
Интерфейс : Встроенный Win32-интерфейс для Win NT/2000

Выходной формат : Пользовательский кодировщик
Выбранный битрейт : 768 kBit/s
Качество : Высокий
Добавление ID3-тэга : Нет
Утилита сжатия : C:\Program Files\Exact Audio Copy\FLAC\FLAC.EXE
Дополнительные параметры : -6 -V -T "ARTIST=%a" -T "TITLE=%t" -T "ALBUM=%g" -T "DATE=%y" -T "TRACKNUMBER=%n" -T "GENRE=%m" -T "COMMENT=%e" %s -o %d

TOC извлечённого CD

Трек | Старт | Длительность | Начальный сектор | Конечный сектор
---------------------------------------------------------------------
1 | 0:00.00 | 5:21.00 | 0 | 24074
2 | 5:21.00 | 4:13.04 | 24075 | 43053
3 | 9:34.04 | 8:38.01 | 43054 | 81904
4 | 18:12.05 | 4:26.62 | 81905 | 101916
5 | 22:38.67 | 3:40.44 | 101917 | 118460
6 | 26:19.36 | 5:23.58 | 118461 | 142743
7 | 31:43.19 | 3:41.51 | 142744 | 159369
8 | 35:24.70 | 9:37.24 | 159370 | 202668
9 | 45:02.19 | 2:42.21 | 202669 | 214839
10 | 47:44.40 | 6:32.59 | 214840 | 244298
11 | 54:17.24 | 3:59.22 | 244299 | 262245
12 | 58:16.46 | 5:21.53 | 262246 | 286373
13 | 63:38.24 | 4:04.44 | 286374 | 304717
14 | 67:42.68 | 4:54.67 | 304718 | 326834

Характеристики диапазона извлечения и сообщения об ошибках
Выбранный диапазон

Имя файла E:\мои документы\Иеромонах Роман - Что, Адам, сидишь ты против рая.wav

Пиковый уровень 100.0 %
Качество диапазона 100.0 %
CRC копии 848E0F47
Копирование... OK

Ошибок не произошло

Конец отчёта
Download

Войдите для скачивания торрент-файла

Как скачивать  ·   Правила трекера

[Профиль]  [ЛС] 

SANDALEA

post 02-Ноя-2009 17:51 (спустя 1 месяц 9 дней)

[Цитировать] 

ХОРОШИЕ ПЕСНОПЕНИЯ!ПРИБАВЬТЕ СКОРОСТЬ !ПЛИИИЗЗ!
 

redwest

Стаж: 6 лет 10 месяцев

Сообщений: 21

Russia

post 04-Фев-2010 22:21 (спустя 3 месяца 2 дня)

[Цитировать] 

Большое Спасибо !!!!
[Профиль]  [ЛС] 

SANDALEA

post 14-Фев-2010 22:25 (спустя 10 дней)

[Цитировать] 

Neutral а 4ё за формат???
 

SANDALEA

post 14-Фев-2010 22:26 (спустя 57 секунд)

[Цитировать] 

sidno
привет....спасибо ......
 

malish12

Стаж: 6 лет 3 месяца

Сообщений: 53

Russia

post 19-Сен-2010 22:41 (спустя 7 месяцев)

[Цитировать] 

спасибо огромное рэбиата
[Профиль]  [ЛС] 

Алексей1988

Стаж: 6 лет

Сообщений: 3

post 10-Ноя-2010 20:40 (спустя 1 месяц 20 дней)

[Цитировать] 

будет читать на обычном DVD? никто не пробовал?
[Профиль]  [ЛС] 

Луиза

Стаж: 4 года 8 месяцев

Сообщений: 4

post 11-Мар-2013 09:49 (спустя 2 года 4 месяца)

[Цитировать] 

Огромное спасибо
[Профиль]  [ЛС] 

gena1g

Стаж: 3 года 2 месяца

Сообщений: 4

Russia

post 29-Сен-2013 11:32 (спустя 6 месяцев)

[Цитировать] 

СПАСИБО!!!

_________________
Геннадий
[Профиль]  [ЛС] 

GROTESK

Стаж: 7 лет 7 месяцев

Сообщений: 78

Откуда: Краснодон

Ukraine

post 19-Май-2014 23:54 (спустя 7 месяцев)

[Цитировать] 

Спаси Господи.
[Профиль]  [ЛС] 
Показать сообщения:    
Ответить на тему

Текущее время: 08-Дек 18:08

Часовой пояс: GMT + 4



Вы не можете начинать темы
Вы не можете отвечать на сообщения
Вы не можете редактировать свои сообщения
Вы не можете удалять свои сообщения
Вы не можете голосовать в опросах
Вы не можете прикреплять файлы к сообщениям
Вы не можете скачивать файлы