Loading...
Error

(Церковная музыка и церковные хоры (lossless).) "Святая Русь". Хор храма Всех Скорбящих Радость п/у Николая Матвеева. (2CD). - 2003, APE (image + .cue), lossless

Ответить на тему
Статистика раздачи
no
   
 
Автор Сообщение

СЕРГУЛЕТ

Стаж: 8 лет

Сообщений: 2639

Откуда: LA ROMANA

Dominicanrep

post 05-Ноя-2009 20:42

[Цитировать] 

"Святая Русь". Хор храма Всех Скорбящих Радость п/у Николая Матвеева. (2CD).

pic
Страна: Россия.Московское Подворье Свято-Троице Сергиевой Лавры.
Жанр: Церковная музыка и церковные хоры (lossless).
Год выпуска: 2003
Формат: APE (image + .cue)
Битрейт аудио: lossless
Продолжительность: 00:50:25+00:40:19
Трэклист:
CD1. ВЕЛИКИЙ ПОСТ.
1. На реках Вавилонских.
2. Не отврати лица Твоего.
3. Господи Сил.
4. Прежде шести дней бытия Пасхи.
5. Чертог Твой.
6. Вечери Твоея тайныя.
7. Суд Пилата.
8. Тебе одеющагося.
9. Не рыдай Мене, Мати.
CD2. СВЯТАЯ ПАСХА.
10. Христос Воскресе..
11. Стихи Святой Пасхи.
12. Ирмосы канона Святой Пасхи.
13. Ангел вопияше..
14. Плотию уснув.
15. Воскресни, Боже...
16. Часы Святой Пасхи.
17. Да воскреснет Бог.
18. Сей день.
Обложки
picpic
Дополнительная информация: Издано по лицензии Издательского Совета Русской Православной Церкви.
Запись LP-диска произведена в 1987 году к 1000-летию Крещения Руси.
Хор Московского храма Всех Скорбящих Радость на Большой Ордынке под управлением Николая Матвеева(1909-1992).
EAC log
Exact Audio Copy V0.99 prebeta 5 from 4. May 2009

Отчёт EAC об извлечении, выполненном 5. ноября 2009, 14:56

Хор церкви Всех скорбящих Радость под управлением Н.В. Матвеева / СВЯТАЯ РУСЬ. ВЕЛИКИЙ ПОСТ. CD1

Дисковод: ASUS BC-1205PT Adapter: 1 ID: 0

Режим чтения : Достоверность
Использование точного потока : Да
Отключение кэша аудио : Да
Использование указателей C2 : Нет

Коррекция смещения при чтении : 667
Способность читать области Lead-in и Lead-out : Нет
Заполнение пропущенных сэмплов тишиной : Да
Удаление блоков с тишиной в начале и конце : Нет
При вычислениях CRC использовались нулевые сэмплы : Да
Интерфейс : Встроенный Win32-интерфейс для Win NT/2000

Выходной формат : Внутренние WAV-операции
Формат сэмплов : 44.100 Гц; 16 бит; стерео

TOC извлечённого CD

Трек | Старт | Длительность | Начальный сектор | Конечный сектор
---------------------------------------------------------------------
1 | 0:00.00 | 12:27.11 | 0 | 56035
2 | 12:27.11 | 2:13.33 | 56036 | 66043
3 | 14:40.44 | 6:57.53 | 66044 | 97371
4 | 21:38.22 | 4:52.17 | 97372 | 119288
5 | 26:30.39 | 7:05.54 | 119289 | 151217
6 | 33:36.18 | 4:07.44 | 151218 | 169786
7 | 37:43.62 | 3:39.33 | 169787 | 186244
8 | 41:23.20 | 7:08.73 | 186245 | 218417
9 | 48:32.18 | 1:50.68 | 218418 | 226735

Характеристики диапазона извлечения и сообщения об ошибках

Выбранный диапазон

Имя файла C:\Хор церкви Всех скорбящих Радость под управлением Н.В. Матвеева - СВЯТАЯ РУСЬ. ВЕЛИКИЙ ПОСТ. CD1.wav

Пиковый уровень 92.6 %
Качество диапазона 99.9 %
CRC копии 190E7407
Копирование... OK

Ошибок не произошло

CD2.
Exact Audio Copy V0.99 prebeta 5 from 4. May 2009

Отчёт EAC об извлечении, выполненном 5. ноября 2009, 15:06

Хор церкви Всех скорбящих Радость под управлением Н.В. Матвеева / СВЯТАЯ РУСЬ. СВЯТАЯ ПАСХА. CD2

Дисковод: ASUS BC-1205PT Adapter: 1 ID: 0

Режим чтения : Достоверность
Использование точного потока : Да
Отключение кэша аудио : Да
Использование указателей C2 : Нет

Коррекция смещения при чтении : 667
Способность читать области Lead-in и Lead-out : Нет
Заполнение пропущенных сэмплов тишиной : Да
Удаление блоков с тишиной в начале и конце : Нет
При вычислениях CRC использовались нулевые сэмплы : Да
Интерфейс : Встроенный Win32-интерфейс для Win NT/2000

Выходной формат : Внутренние WAV-операции
Формат сэмплов : 44.100 Гц; 16 бит; стерео

TOC извлечённого CD

Трек | Старт | Длительность | Начальный сектор | Конечный сектор
---------------------------------------------------------------------
1 | 0:00.00 | 1:22.05 | 0 | 6154
2 | 1:22.05 | 3:11.06 | 6155 | 20485
3 | 4:33.11 | 5:49.22 | 20486 | 46682
4 | 10:22.33 | 2:52.20 | 46683 | 59602
5 | 13:14.53 | 2:10.50 | 59603 | 69402
6 | 15:25.28 | 5:28.62 | 69403 | 94064
7 | 20:54.15 | 11:19.54 | 94065 | 145043
8 | 32:13.69 | 6:24.50 | 145044 | 173893
9 | 38:38.44 | 1:39.12 | 173894 | 181330

Характеристики диапазона извлечения и сообщения об ошибках

Выбранный диапазон

Имя файла C:\Хор церкви Всех скорбящих Радость под управлением Н.В. Матвеева - СВЯТАЯ РУСЬ. СВЯТАЯ ПАСХА. CD2.wav

Пиковый уровень 92.6 %
Качество диапазона 100.0 %
CRC копии 9144BB50
Копирование... OK

Ошибок не произошло
Download

Войдите для скачивания торрент-файла

Как скачивать  ·   Правила трекера



Последний раз редактировалось: СЕРГУЛЕТ (2010-02-11 23:31), всего редактировалось 1 раз
[Профиль]  [ЛС] 

avttlt

Стаж: 7 лет 3 месяца

Сообщений: 1

post 06-Ноя-2009 22:36 (спустя 1 день 1 час)

[Цитировать] 

Низкий Вам поклон. 20 лет лелею виниловый двойник, а вот CD не попадался.
Спасибо
[Профиль]  [ЛС] 

kondrat1972

post 08-Ноя-2009 21:54 (спустя 1 день 23 часа)

[Цитировать] 

Спасибо
 

Eniack

Стаж: 6 лет 3 месяца

Сообщений: 4

post 09-Мар-2012 20:52 (спустя 2 года 4 месяца)

[Цитировать] 

Смиреннейше прошу скорости... Никого нет. ((
[Профиль]  [ЛС] 

shymsknik

Стаж: 6 лет 1 месяц

Сообщений: 179

Russia

post 18-Апр-2012 15:02 (спустя 1 месяц 8 дней)

[Цитировать] 

Спасибо еще раз
[Профиль]  [ЛС] 

Александр 101064

Стаж: 1 год 9 месяцев

Сообщений: 2

Russia

post 15-Май-2015 14:46 (спустя 3 года)

[Цитировать] 

А почему трекер не активен
[Профиль]  [ЛС] 

Александр 101064

Стаж: 1 год 9 месяцев

Сообщений: 2

Russia

post 15-Май-2015 14:47 (спустя 1 минута)

[Цитировать] 

Очень надо скачать, помогите пожалуйста !!
[Профиль]  [ЛС] 

Academic Crack

Администратор

Стаж: 8 лет 2 месяца

Сообщений: 2084

Russia

post 16-Май-2015 00:13 (спустя 9 часов)

[Цитировать] 

Вы пытаетесь из архива скачать. Ребят, ну сколько уж раз говорили, смотрите на раздел, где находится раздача. Скачать из архива нельзя.

_________________
pic
pic 100 Мбит/с, pic 100 Мбит/с.
Исправили раздачу? Пишите в личку со ссылкой на раздачу.
[Профиль]  [ЛС] 

xor

Стаж: 1 год 8 месяцев

Сообщений: 1

post 03-Июн-2015 13:05 (спустя 18 дней)

[Цитировать] 

Please repair the link. I can't download the torrent.
[Профиль]  [ЛС] 
Показать сообщения:    
Ответить на тему

Текущее время: 19-Фев 15:43

Часовой пояс: GMT + 4



Вы не можете начинать темы
Вы не можете отвечать на сообщения
Вы не можете редактировать свои сообщения
Вы не можете удалять свои сообщения
Вы не можете голосовать в опросах
Вы не можете прикреплять файлы к сообщениям
Вы не можете скачивать файлы