Loading...
Error

Парад Победы 9.05.15 Прямая трансляция (1 канал) [2015 г., Патриотический, TVRip]

Ответить на тему
Статистика раздачи
   
 
Автор Сообщение

OlegZ

Стаж: 6 лет

Сообщений: 464

Russia

post 12-Май-2015 15:12

[Цитировать] 

Парад Победы 9.05.15 Прямая трансляция

pic
Год выпуска: 2015
Жанр: Патриотический
Продолжительность: 01:42:08

Режиссер: 1 канал

В фильме снимались: Президент России, главы дружественных государств, вооруженные силы России и дружественных государств, ветераны войны, гости столицы, военная техника

Описание: Парад посвященный 70-летию Великой Победы.

Качество: WEBRip
Формат: AVI
Видео кодек: XviD
Аудио кодек: MP3
Видео: XviD, 720*408 (16:9), 2000 Кбит/сек, 25,000 кадров/сек
Аудио: МР3, 192 Кбит/сек, 48 КГц, 2 канала
MediaInfo
Полное имя : Parad Pobedy v Moskve 9.05.15.avi
Формат : AVI
Формат/Информация : Audio Video Interleave
Профиль формата : OpenDML
Размер файла : 1,57 Гбайт
Продолжительность : 1 ч. 42 м.
Общий поток : 2205 Кбит/сек
Программа кодирования : Lavf56.15.102
Примечание : MATROSKA,WEBM > AVI DVD Player 576p / H264 > XVID VBR-3P 2000kbps HQ / AAC-LC > MP3 HQ

Видео
Идентификатор : 0
Формат : MPEG-4 Visual
Профиль формата : Advanced Simple@L5
Параметр BVOP формата : 1
Параметр QPel формата : Нет
Параметр GMC формата : Без точки перехода
Параметр матрицы формата : Default (H.263)
Идентификатор кодека : XVID
Идентификатор кодека/Подсказка : XviD
Продолжительность : 1 ч. 42 м.
Битрейт : 2000 Кбит/сек
Ширина : 720 пикселей
Высота : 408 пикселей
Соотношение сторон : 16:9
Частота кадров : 25,000 кадров/сек
Цветовое пространство : YUV
Субдискретизация насыщенности : 4:2:0
Битовая глубина : 8 бит
Тип развёртки : Прогрессивная
Метод сжатия : С потерями
Бит/(Пиксели*Кадры) : 0.272
Размер потока : 1,43 Гбайт (91%)
Библиотека кодирования : XviD 64

Аудио
Идентификатор : 1
Формат : MPEG Audio
Версия формата : Version 1
Профиль формата : Layer 3
Режим : Joint stereo
Идентификатор кодека : 55
Идентификатор кодека/Подсказка : MP3
Продолжительность : 1 ч. 42 м.
Вид битрейта : Постоянный
Битрейт : 192 Кбит/сек
Каналы : 2 канала
Частота : 48,0 КГц
Метод сжатия : С потерями
Размер потока : 140 Мбайт (9%)
Выравнивание : Соединение по промежуткам
Продолжительность промежутка : 24 мс. (0,60 видеокадр)
Библиотека кодирования : LAME3.99.5
Скриншоты:
picpicpicpicpicpicpicpicpicpicpicpicpicpicpicpicpicpicpicpicpic
Download

Войдите на сайт, чтобы увидеть полную информацию.

Как скачивать  ·   Правила трекера



Последний раз редактировалось: OlegZ (2015-05-20 23:22), всего редактировалось 1 раз
[Профиль]  [ЛС] 

andrejpushkaryov

Модератор

Стаж: 8 лет 5 месяцев

Сообщений: 1010

Откуда: Ижевск

Russia

post 16-Май-2015 20:09 (спустя 4 дня)

[Цитировать] 

Arrow Требования к видео-раздачам на трекере
Релизы в MPEG-4 ASP стороны должны быть кратными 16-ти пикселям.
[Профиль]  [ЛС] 

OlegZ

Стаж: 6 лет

Сообщений: 464

Russia

post 24-Май-2015 16:51 (спустя 7 дней)

[Цитировать] 

andrejpushkaryov писал(а):

Arrow Требования к видео-раздачам на трекере
Релизы в MPEG-4 ASP стороны должны быть кратными 16-ти пикселям.
Ок. По горизонтали :16, по вертикали :8. Не знаю, будет ли время сделать :16:16.
[Профиль]  [ЛС] 
Показать сообщения:    
Ответить на тему

Текущее время: 20-Сен 22:17

Часовой пояс: GMT + 4



Вы не можете начинать темы
Вы не можете отвечать на сообщения
Вы не можете редактировать свои сообщения
Вы не можете удалять свои сообщения
Вы не можете голосовать в опросах
Вы не можете прикреплять файлы к сообщениям
Вы не можете скачивать файлы